» » Marc van Linden - (I'm Gonna Take You To) Another Dimension

Marc van Linden - (I'm Gonna Take You To) Another Dimension album FLAC

  • Performer: Marc van Linden
  • Title: (I'm Gonna Take You To) Another Dimension
  • Genre: Electronic
  • Country: Germany
  • Formats: MP1 AUD RA MMF FLAC AAC ASF
  • Released: 1999
  • Style: Trance, Progressive Trance
  • MP3 album: 1568 mb
  • FLAC album: 1716 mb
  • Rating: 4.8/5
  • Votes: 246
Marc van Linden - (I'm Gonna Take You To) Another Dimension album FLAC

This is a scan done by us, but as we have often several items in stock, it may be from a different item. I'm Gonna Take You To) Another Dimension.

Marc van Linden" ISRC DEG369900338 INDEX 01 00:00:00 TRACK 02 AUDIO TITLE "(I'm Gonna Take You To) Another Dimension (Lightforce Radio Mix)" PERFORMER "Marc van Linden" ISRC DEG369900339 INDEX 00 03:07:49 FILE "02 - (I'm Gonna Take You To) Another Dimension (Lightforce Radio Mix). wav" WAVE INDEX 01 00:00:00 TRACK 03 AUDIO. Linden" ISRC DEG369900341 INDEX 00 06:13:73 FILE "04 - (I'm Gonna Take You To) Another Dimension (Club Mix). wav" WAVE INDEX 01 00:00:00 TRACK 05 AUDIO TITLE "(I'm Gonna Take You To) Another Dimension (Lightforce Extended Mix)" PERFORMER "Marc van Linden" ISRC DEG369900342 INDEX 00 06:31:15 FILE "05 - (I'm Gonna Take.

Download Marc van Linden - (I'm Gonna Take You To) Another Dimension - 1999, FLAC (tracks+. Marc van Linden - (I'm Gonna Take You To) Another Dimension (CDS) (1999) 01 - (I'm Gonna Take You To) Another Dimension (Short. Marc van Linden - (I'm Gonna Take You To) Another Dimension - 1999, FLAC (tracks+. Download via torrent Download via magnet.

Another Dimension (Short Mix) - Marc Van Linden. Marc Van Linden I Like It (Tony Beatz Remix) - Marc van linden.

Marc Van Linden feat. Gotta Let You Go (David No Fuck & Vnalogic Remix). Marc Van Linden feat. Gotta Let You Go (Back To The 80's The Winners Remix). Another Dimension (I'm Gonna Take You To) (Sanity Remix). Forbidden Love (A-Cut).

Marc Van Linden-(Im Gonna Take You To) Another 999-MAHOU. Submitted by MantoPanto on Mon, 07/03/2017 - 18:29. Keoki ‎– Jealousy + Remix album. more 1 day 23 hours ago.

Tracklist Hide Credits

A1 (I'm Gonna Take You To) Another Dimension (Club Mix) 6:31
A2 (I'm Gonna Take You To) Another Dimension (Lightforce Extended Mix)
Remix – Lightforce
7:07
B1 (I'm Gonna Take You To) Another Dimension (Sanity Remix)
Remix – Sanity
6:14

Companies, etc.

  • Published By – Warner/Chappell
  • Recorded At – Fairlight Studios
  • Phonographic Copyright (p) – Dos Or Die Recordings GmbH
  • Copyright (c) – Dos Or Die Recordings GmbH
  • Distributed By – Q-Vertriebs GmbH

Credits

  • Producer [In Cooperation With] – The Fairlight Crew
  • Producer [Produced By] – Marc van Linden
  • Written-By – Marc van Linden

Notes

Produced by Marc van Linden in cooperation with the Fairlight Crew.

℗ + © 1999, Dos Or Die Recordings GmbH

Printed in Germany.

Barcode and Other Identifiers

  • Barcode (Text): 4 036883 101219
  • Barcode (Scanned): 4036883101219
  • Matrix / Runout (Runout A side, hand etched): DOS 121-A1
  • Matrix / Runout (Runout B side, hand etched): DOS 121-A1
  • Label Code (Nightown): LC 01812
  • Rights Society: GEMA

Other versions

Category Artist Title (Format) Label Category Country Year
333.0121.3 Marc van Linden (I'm Gonna Take You To) Another Dimension ‎(CD, Maxi) Dos Or Die Recordings 333.0121.3 Germany 1999
VLMX 244-3 Marc van Linden (I'm Gonna Take You To) Another Dimension ‎(12") Cyber Music VLMX 244-3 Spain 2000
DOS 121 Marc van Linden (I'm Gonna Take You To) Another Dimension ‎(12", Promo) Dos Or Die Recordings DOS 121 Germany 1999




Related to Marc van Linden - (I'm Gonna Take You To) Another Dimension albums: